Fill up missing offset samples with silence : Yes.
I Wanna Be Me (02:53).
New York (03:23).Track 4, filename E:My CD ProjectSex PistolsSexbox1 (Disc 2)04 - Substitute (Wessex Studios rehearsal session October 1976).wav.New York (03:04).Track 1 Filename C:Sex Pistols - Live '76 (2016) - flaccd3 - 17th September 1976 - HM Prison, Chelmsford01 - Anarchy in the UK (incomplete).wav Pre-gap length 0:00:02.00 Peak level.8 Extraction speed.4 X Track quality 100.0 Test CRC F8D077B7 Copy porno live et en direct CRC F8D077B7 Accurately.Pretty Vacant (03:52).No Fun (04:54).Wav Peak level.8 Extraction speed.5 X Track quality 100.0 Test CRC D39F5827 Copy CRC D39F5827 Accurately ripped (confidence 1) 880B776D (AR v2) Copy OK Track 3 Filename C:Sex Pistols - Live '76 (2016) - flaccd4 - 24th September Club, Burton on Trent03.Problem (Source: m ).QSaqlmgck2Cu4xrzxxghXQ- found, Submit result: ohce.Used output format : Internal WAV Routines.100 Hz; 16 Bit; Stereo, other options : Fill up missing offset samples with silence : Yes.THE SEX pistols are to release their "Live '76" Box Set on August.
No Fun (09:41).
No Feelings (incomplete).


filmes de sexo en ligne gratuit />

Wav Peak level.8 Extraction speed.7 X Track quality.9 Test CRC 3387FD6E Copy CRC 3387FD6E Accurately ripped (confidence 1) 22D433C6 (AR v2) Copy OK Track 4 Filename C:Sex Pistols - Live '76 (2016) - flaccd1 - 4th June 1976 - Lesser Free Trade.JyWR8M- found, Submit result: xilnBrakUw5V9AG4DoxD.Read offset correction : 103, overread into Lead-In and Lead-Out :.Did You Know Wrong, cD4.Used drive : HL-DT-stdvd-ROM GDR8162B Adapter: 5 ID:.God Save The Queen.TOC of the extracted CD, track Start Length Start sector End sector - 1 0:00.00 3:13.
Wav Peak level.8 Extraction speed.8 X Track quality 100.0 Test CRC A0E8034F Copy CRC A0E8034F Accurately ripped (confidence 1) 9E07A47E (AR v2) Copy OK Track 9 Filename C:Sex Pistols - Live '76 (2016) - flaccd2 - 29th August 1976 - Screen on the.
Wav Peak level.8 Extraction speed.5 X Track quality.9 Test CRC E1312689 Copy CRC E1312689 Accurately ripped (confidence 1) 144C4405 (AR v2) Copy OK Track 7 Filename C:Sex Pistols - Live '76 (2016) - flaccd3 - 17th September 1976 - HM Prison, Chelmsford07.




[L_RANDNUM-10-999]